#TITLE:Trick & Treat;
#SUBTITLE:;
#ARTIST:Kagamine Rin & Len;
#TITLETRANSLIT:;
#SUBTITLETRANSLIT:;
#ARTISTTRANSLIT:;
#CREDIT:;
#BANNER:Kagamine Rin & Len - Trick & Treat-banner.jpg;
#BACKGROUND:lowe.jpg;
#LYRICSPATH:Kagamine Rin & Len - Trick & Treat.lrc;
#CDTITLE:CDTitle.png;
#MUSIC:Kagamine Rin & Len - Trick & Treat.ogg;
#OFFSET:0.320;
#SAMPLESTART:16.120;
#SAMPLELENGTH:12.000;
#SELECTABLE:YES;
#BPMS:0.000=135.000,37.000=67.500,43.000=135.000,47.000=67.500,53.000=135.000,57.000=67.500,63.000=135.000,67.000=67.500,73.000=135.000;
#STOPS:;
#BGCHANGES:;
// cache tags:
#FIRSTBEAT:5.000;
#LASTBEAT:236.000;
#SONGFILENAME:songs/Vocaloid Party/Kagamine Rin & Len - Trick & Treat/Kagamine Rin & Len - Trick & Treat.sm;
#HASMUSIC:1;
#HASBANNER:1;
#MUSICLENGTH:118.047;
// end cache tags

//---------------dance-single - ----------------
#NOTES:
     dance-single:
     :
     Challenge:
     12:
     0.933,0.925,0.127,0.203,1.000,732.000,15.000,24.000,89.000,0.000:

0000
0000
0000
0000
,
0000
0000
0000
0000
1000
0100
0010
0001
0100
0000
0001
0000
0100
0000
0010
0000
,
0100
0000
0010
1000
0010
0100
0001
1000
0010
0000
0100
0010
1000
0001
1000
0100
,
0010
0001
0100
0010
1000
0000
0001
0010
0100
0000
0010
0000
0001
0000
1000
0000
,
0010
0000
0000
0000
0000
0000
0100
0000
0000
0000
0000
0000
0010
0000
0000
1000
0000
0000
0010
0000
0000
1000
0000
0000
0001
0000
0000
0100
0000
0000
0001
0000
0000
0100
0000
0000
0010
0000
0000
0000
0100
0000
0010
0000
0000
0000
0100
0000
,
0001
0000
0001
1000
0000
1000
0002
0000
0000
1003
0010
1000
0010
1000
0010
1000
0000
0000
0010
0000
0000
0100
0000
0000
,
0010
0000
0000
0000
1000
0000
0010
0000
0000
0000
0100
0000
0001
0000
0000
0100
0000
0000
0010
0000
0000
0100
0000
0000
0001
0000
0000
0000
0000
0000
1000
0000
0000
0000
0000
0000
0010
0000
0000
0100
0000
0000
0010
0000
0000
1000
0000
0000
,
0001
0000
0000
0000
0010
0000
0100
0000
1000
0000
0100
0000
1000
0000
0000
0100
0000
0000
0010
0000
0000
0001
0000
0000
0010
0000
0000
0000
0000
0000
0001
0000
0000
0000
0000
0000
0100
0000
0000
0000
0000
0000
0010
0000
0000
0000
0000
0000
,
1000
0000
0000
0000
0010
0000
1000
0000
0000
0000
0001
0000
1000
0000
0000
0010
0000
0000
0100
0000
0000
0001
0000
0000
1000
0000
0001
0000
1000
0000
0001
0000
1000
0000
0001
0000
1000
0000
0000
0000
0000
0000
M001
0000
0000
0000
0000
0000
,
100M
0000
0000
0000
11M0
0001
1M00
0001
10M0
0100
M010
0001
10M0
0100
M010
0001
,
10M0
0000
0000
0100
0000
0000
M010
0000
0000
0001
0000
0000
10M0
0000
0000
0100
0000
0000
M010
0000
0000
0001
0000
0000
1M00
0000
0000
0010
0000
0100
001M
0000
0100
0001
0000
0000
1000
0000
0000
0001
0000
0000
0010
0000
0000
0100
0000
0000
,
1000
0000
0000
0001
0000
0000
0010
0000
0000
0001
0000
0000
1000
0000
0000
0000
0000
0000
0100
0000
0000
0000
0000
0000
1000
0000
0000
0000
0010
0000
0100
0000
0010
0000
0100
0000
0010
0000
0000
1000
0000
0000
M010
0000
0000
0100
0000
0000
,
M100
1000
M100
0001
M001
1000
M001
0010
M010
1000
M010
0001
M100
1000
M100
0010
,
M100
0000
0001
0100
0000
0010
100M
0000
0000
0001
0000
0000
0100
0000
0000
0010
0000
0000
1000
0000
0000
0001
0000
0000
0100
0000
0000
0010
0000
0000
1000
0000
0000
0001
0000
0000
0100
0000
0000
0000
0000
0000
0010
0000
0000
0000
0000
0000
,
1000
0000
0000
0000
0100
0000
1000
0000
0010
0000
1000
0000
001M
0000
0000
0100
0000
0000
M010
0000
0000
1000
0000
0000
010M
0000
0000
0010
0000
0000
01M0
0000
0000
1000
0000
0000
0M01
0000
0000
0100
0000
0000
00M1
0000
0000
1000
0000
0000
,
0M10
0000
0000
0100
0000
0000
001M
0000
0000
1000
0000
0000
01M0
0000
0000
0010
0000
0000
M001
0000
0000
0100
0000
0000
00M1
0000
0000
1000
0000
0010
M100
0000
0001
0100
0000
0000
0010
0000
0000
0100
0000
0000
0010
0000
0000
0100
0000
0000
,
0001
0000
0000
0000
0000
0000
0000
0000
0000
0000
0000
0000
1000
0000
0000
0000
0000
0000
0000
0000
0000
0000
0000
0000
0001
0000
0000
0000
0000
0000
0000
0000
0000
0000
0000
0000
1000
0000
0000
0000
0000
0000
0000
0000
0000
0000
0000
0000
0010
0000
0000
0000
0000
0000
0000
0000
0000
0000
0000
0000
0000
0000
0000
0000
0000
0000
0000
0000
0000
0000
0000
0000
0100
0000
0000
0000
0000
0000
0000
0000
0000
0000
0000
0000
0000
0000
0000
0000
0000
0000
0000
0000
0000
0000
0000
0000
0001
0000
0000
0000
0000
0000
0000
0000
0000
0000
0000
0000
0000
0000
0000
0000
0010
0000
0000
0000
0000
0000
0000
0000
0001
0000
0000
0000
0000
0000
0000
0000
0010
0000
0000
0000
0000
0000
0000
0000
0001
0000
0000
0000
0000
0000
0000
0000
0100
0000
0000
0000
0000
0000
0000
0000
0000
0000
0000
0000
0001
0000
0000
0000
0000
0000
0000
0000
0000
0000
0000
0000
1M00
0000
0000
0000
0000
0000
0000
0000
0000
0000
0000
0000
0100
0000
0000
0000
0000
0000
0010
0000
0000
0000
0000
0000
,
M100
0000
0000
0000
0000
0000
0000
0000
0000
0000
0000
0000
1000
0000
0000
0000
0000
0000
0000
0000
0000
0000
0000
0000
0M01
0000
0000
0000
0000
0000
0000
0000
0010
0000
0000
0000
0100
0000
0000
0000
0000
0000
0000
0000
0000
0000
0000
0000
M100
0000
0000
0000
0000
0000
0000
0000
0000
0000
0000
0000
1000
0000
0000
0000
0000
0000
0000
0000
0000
0000
0000
0000
001M
0000
0000
0000
0000
0000
0000
0000
0000
0000
0000
0000
0100
0000
0000
0000
0000
0000
0000
0000
0000
0000
0000
0000
M001
0000
0000
0000
0000
0000
0000
0000
0000
0000
0000
0000
1000
0000
0000
0000
0000
0000
0000
0000
0000
0000
0000
0000
001M
0000
0000
0000
0000
0000
0000
0000
1000
0000
0000
0000
0010
0000
0000
0000
0000
0000
0000
0000
0010
0000
0000
0000
M100
0000
0000
0000
0000
0000
0000
0000
0000
0000
0000
0000
0010
0000
0000
0000
0000
0000
0000
0000
0000
0000
0000
0000
1M00
0000
0000
0000
0000
0000
0000
0000
0000
0000
0000
0000
0001
0000
0000
0000
0000
0000
0010
0000
0000
0000
0000
0000
,
010M
0000
0000
0010
0000
0001
1M00
0000
0010
0100
0000
0000
0100
0000
0000
0010
0000
0000
1000
0000
0000
0001
0000
0000
1000
0000
0000
0100
0000
0000
1000
0000
0000
0001
0000
0000
0100
0000
0000
0000
0000
0000
0010
0000
0000
0000
0000
0000
,
0100
0000
0000
0000
0001
0000
1000
0000
0001
0000
1000
0000
0100
0000
0000
1000
0000
0000
0010
0000
0000
1000
0000
0000
0001
0000
0000
0100
0000
0000
1000
0000
0000
0100
0000
0000
0010
0000
0000
1000
0000
0000
0100
0000
0000
0001
0000
0000
,
0100
1000
0010
0001
0010
0100
0010
1000
0100
0010
0001
0100
0010
1000
0001
0100
,
0010
0000
0000
0000
0100
0010
0100
0000
0001
0000
1000
0000
0001
0010
1000
0010
,
0100
0000
1000
0000
0001
0000
0100
0000
0010
0000
0100
0000
0101
0000
0000
1000
,
1001
0000
0001
0010
0011
0000
1000
0000
0010
0000
0100
0000
0010
0100
1000
0100
,
0010
0000
1000
0000
0010
0000
0100
0000
0001
0000
1000
0000
0000
0000
0010
0100
,
0001
0000
0100
0000
0010
0000
1000
0000
0010
0000
0100
0000
0001
0010
1000
0010
,
0001
0000
0000
0100
0000
0000
0101
0000
0000
1010
0000
0000
0110
0000
0000
1100
0000
0000
0001
0000
0001
1000
0000
0000
,
0101
0000
0110
0000
0010
0000
0010
0100
0010
0000
0001
0000
0100
0000
0010
0000
,
1000
0000
0001
0100
0010
0000
0100
0000
0001
0000
1000
0000
0010
0100
0010
1000
,
0100
0000
0000
0000
0100
0000
1000
0001
0100
0000
0010
0100
0001
0000
1000
0000
,
0001
0000
1000
0000
0010
1000
0010
0100
0010
0000
1000
0000
0001
0000
0010
0000
,
0001
0000
0000
0000
1000
0000
0001
0000
0000
0000
1000
0000
0001
0000
0000
0000
0000
0000
1000
0000
0000
0100
0000
0000
0010
0000
0000
0000
0000
0000
0100
0000
0000
0000
0000
0000
1000
0000
0000
0000
0000
0000
0001
0000
0000
0000
0000
0000
,
0100
0000
0000
0000
0100
0000
0010
0000
0000
0000
0010
0000
0100
0000
0000
0000
0000
0000
0001
0000
0000
0000
0000
0000
1000
0000
0000
0000
0000
0000
0010
0000
0000
0000
0000
0000
1000
0000
0000
0010
0000
0000
0100
0000
0000
0010
0000
0000
,
0100
0000
0000
0000
0001
0000
0100
0000
0001
0000
0100
0000
0010
0000
0000
0000
0000
0000
1000
0000
0000
0001
0000
0000
0010
0000
0000
0000
0000
0000
0100
0000
0000
0000
0000
0000
1000
0000
0000
0000
0000
0000
0010
0000
0000
0000
0000
0000
,
1000
0000
0000
0000
1000
0000
0100
0000
0000
0000
0100
0000
0010
0000
0000
0001
0000
0000
0010
0000
0000
0100
0000
0000
0010
0000
0000
0000
0000
0000
0000
0000
0000
0000
0000
0000
0001
0000
0000
0000
0100
0000
0010
0000
0000
0000
0000
0000
,
0101
0000
0000
0010
0100
0000
1000
0000
0001
0010
0100
0000
0100
1000
0000
0000
,
0010
0000
0100
0001
0010
0001
1000
0010
0100
0000
0010
0000
1000
0000
0001
0000
,
0010
0000
0000
0000
0100
0000
1000
0000
0000
0000
0000
0000
0010
0000
0000
0000
1000
0000
0100
0000
0000
0000
0010
0000
0100
0000
0000
0000
0000
0000
0000
0000
0000
0010
0000
0000
0001
0000
0000
0000
0000
0000
0100
0000
0000
0000
0000
0000
,
0001
0000
0000
0000
0100
0010
0100
0010
0100
0000
0010
0000
1000
0000
0000
0000
0001
0000
0000
0000
0000
0000
1000
0000
0001
0000
0000
0000
0100
0000
0000
0000
,
0010
0000
0000
0000
0100
0000
0001
0000
0000
0000
0100
0000
002M
0000
0000
0000
0000
0000
2M30
0000
0000
0000
0000
0000
30M2
0000
0000
0000
0000
0000
M003
0000
0000
0100
0000
0000
002M
0000
0000
0000
0000
0000
M230
0000
0000
0000
0000
0000
,
230M
0000
31M0
0001
1M00
0010
01M0
0001
M010
0000
020M
0000
23M0
0000
302M
0000
,
M032
0000
0M13
1000
002M
0000
M230
0000
032M
0000
M030
1000
00M2
0000
2M03
0000
,
30M2
0000
M103
0010
200M
0000
32M0
0000
032M
0000
M130
1000
00M2
0000
0M23
0000
,
M130
0000
0000
0000
0010
0000
0100
0000
0000
0000
1000
0000
0001
0000
0000
0000
0000
0000
0100
0000
0000
0000
0000
0000
0010
0000
0000
0000
0000
0000
1000
0000
0000
0000
0000
0000
0010
0000
0000
1000
0000
0000
0100
0000
0000
1000
0000
0000
,
0010
0000
0000
0000
0100
0000
0001
0000
0000
0000
0001
0000
0010
0000
0000
0100
0000
0000
0010
0000
0000
0001
0000
0000
0010
0000
0000
0000
0000
0000
0100
0000
0000
0000
0000
0000
1000
0000
0000
0010
0000
0000
0100
0000
0000
0001
0000
0000
,
0100
0000
0000
0000
0010
0000
0100
0000
0001
0000
0100
0000
0010
0000
0000
1000
0000
0000
0100
0000
0000
0010
0000
0000
0001
0000
0000
0000
0000
0000
0100
0000
0000
0000
0000
0000
0010
0000
0000
1000
0000
0000
0001
0000
0000
0100
0000
0000
,
0010
0000
0000
0000
1000
0000
0100
0000
0000
0000
0100
0000
1000
0000
0000
0000
0000
0000
0010
0000
0000
0000
0000
0000
0100
0000
0000
0001
0000
0000
1000
0000
0000
0000
0000
0000
0010
0000
0000
0000
0000
0000
0100
0000
0000
0000
0000
0000
,
0010
0000
0000
0000
0100
0000
0010
0000
0000
0000
0010
0000
1000
0000
0000
0010
0000
0000
0100
0000
0000
0001
0000
0000
0100
0000
0000
0001
0000
0000
1000
0000
0000
0010
0000
0000
0100
0000
0000
0010
0000
0000
1000
0000
0000
0100
0000
0000
,
1000
0000
0000
0000
0100
0000
0010
0000
0001
0000
0010
0000
0200
0000
0000
0000
0000
0000
1300
0000
0000
0010
0000
0000
0100
0000
0000
0001
0000
0000
0100
0000
0000
0010
0000
0000
1000
0000
0000
0000
0000
0000
0100
0000
0000
0000
0000
0000
,
1000
0000
0001
0100
0000
0100
0001
0000
0000
0011
0000
0000
0110
0000
0000
1100
0000
0000
1000
0000
0010
0100
0000
0000
,
0101
0000
0000
0000
1000
0000
0010
0100
0010
0100
1000
0100
0010
0100
0001
0010
,
0100
1000
0100
1000
0001
0100
0001
1000
0010
1000
0010
0100
1000
0100
0010
0100
,
0001
0000
0000
0000
0010
0001
0100
0010
1000
0100
0010
0100
1000
0010
0100
0001
,
0010
0000
0000
0100
0000
0000
1000
0000
0000
0010
0000
0000
0100
0000
0000
0001
0000
0000
0010
0000
0000
0100
0000
0000
1000
0000
0000
0010
0000
0000
0100
0000
0000
0010
0000
0000
1000
0000
0000
0000
1000
0000
0100
0000
0000
0000
0000
0000
,
0010
0000
0010
0001
0000
0001
1000
0000
0000
0010
1000
0001
1000
0001
1000
0100
0000
0000
1000
0000
0000
0001
0000
0000
,
0100
0000
0000
0000
0100
0000
0010
0000
0000
0000
0010
0000
1000
0000
0000
0000
0000
0000
0001
0000
0000
0000
0000
0000
0010
0000
0000
0000
0000
0000
0100
0000
0000
0000
0000
0000
1000
0000
0000
0100
0000
0000
1000
0000
0000
0010
0000
0000
,
0100
0000
0000
0000
0010
0000
1000
0000
0010
0000
0100
0000
0010
0000
0000
1000
0000
0000
0001
0000
0000
1000
0000
0000
0010
0000
0000
0000
0000
0000
0100
0000
0000
0000
0000
0000
0001
0000
0000
0000
0000
0000
0100
0000
0000
0000
0000
0000
,
0010
0000
0000
0000
1000
0000
0100
0000
0000
0000
0100
0000
0010
0000
0000
0001
0000
0000
0100
0000
0000
0001
0000
0000
0010
0000
0100
0000
0010
0000
0100
0000
0010
0000
0100
0000
0020
0000
0000
0030
0000
0000
10M0
0000
0000
0000
0000
0000
,
M100
00M0
000M
M000
0M00
M000
0M00
00M0
,
000M
0000
0000
0000
;

//---------------dance-single - ----------------
#NOTES:
     dance-single:
     :
     Hard:
     9:
     0.696,0.712,0.161,0.119,0.593,542.000,19.000,14.000,23.000,0.000:
0000
0000
0000
0000
,
0000
0000
0000
0000
1000
0000
0010
0100
0010
0000
0100
0000
0001
0000
0100
0000
,
0001
0000
0010
0100
1000
0100
0010
0000
0001
0000
0010
0100
1000
0100
0010
0000
,
0001
0000
1000
0100
1000
0000
0010
0100
0010
0000
1000
0000
0001
0000
1000
0000
,
0100
0000
0000
0010
0000
0000
0011
0000
0000
0000
0000
0000
0001
0000
1001
0000
0000
0000
1000
0000
0000
0010
0000
0000
,
1000
0001
0010
0100
0010
0100
0010
0001
,
1000
0000
0010
0000
1000
0100
0010
0001
0100
0000
0010
0000
1000
0100
0010
0001
,
1000
0000
0001
0000
0100
0010
0100
0010
0100
0000
0001
0000
0100
0000
0010
0000
,
1000
0000
0100
1000
0100
0000
0010
0000
M20M
M00M
M00M
M00M
M30M
0000
1100
0000
,
1100
0000
0000
0000
1000
0010
0100
0010
0000
1000
0001
0100
0000
0010
1000
0002
,
0000
1003
0100
0010
0001
1000
0100
0010
0100
0010
0001
1000
0001
0000
0100
0000
,
0010
0000
1000
0000
0010
0000
1000
0000
0100
0000
0010
0100
1000
0010
0100
0020
,
0000
1030
0001
0100
0000
0010
1000
0002
0000
0103
0010
0100
0001
1000
0010
0100
,
0001
1000
0010
0100
0010
0000
1000
0000
0010
0000
0100
0000
0010
0000
1000
0000
,
0001
0000
0100
0010
0100
0010
1000
0200
0000
0310
0001
0100
0000
0010
1000
0200
,
0000
0310
0001
0100
0010
1000
0010
0100
0001
0100
0010
1000
0100
0000
0010
0000
,
0001
0000
1000
0000
0010
0000
0100
0000
0001
0000
1000
0010
1000
0010
0100
0020
,
0000
1030
0001
0100
0000
0010
1000
0001
0100
0010
1000
0001
0100
0010
1000
0001
,
0100
0010
1000
0010
0100
0000
0010
0000
1000
0000
0010
0000
0100
0000
0010
0000
,
1000
0000
0010
0100
0001
0000
1000
0000
0010
0000
0100
0000
0010
0000
1000
0000
,
0001
1000
0010
1000
0010
0100
0002
0100
,
0013
0000
0000
0000
1000
0001
1000
0000
0010
0000
0100
0000
0001
0010
0100
1000
,
0010
0100
0001
1000
0010
1000
0002
0100
,
0013
0000
0000
0000
1000
0000
0010
0000
0100
0000
0001
0000
1000
0010
0100
0010
,
1000
0000
0100
0000
0010
0000
0001
0000
0010
0000
0002
0000
0000
0000
1003
0100
,
1000
0000
1000
0000
0010
0000
0100
0000
0001
0000
1000
0000
0010
1000
0100
0010
,
0100
1000
1100
1000
0101
0100
0020
0000
,
2030
0000
0000
0000
3010
0000
0100
0010
0100
0000
0010
0000
1000
0000
0100
0000
,
0010
0000
0100
1000
0010
0000
0100
0000
0010
0000
1000
0000
0001
0100
0010
0100
,
0010
0000
0000
0000
1000
0000
0010
0100
0010
0000
1000
0000
0001
0000
0100
0000
,
0010
0000
1000
0000
0010
0100
0001
0100
0010
0000
1000
0000
0001
0000
0100
0000
,
0010
0000
0010
0000
1010
0000
1000
0010
1000
0000
0100
0000
1000
0000
0001
0000
,
0010
0000
0100
1000
0100
0000
0001
0000
0100
0000
1000
0000
0010
1000
0010
1000
,
0010
0000
0000
0000
0100
0000
0001
0100
0010
0000
0100
0000
0010
0000
0001
0000
,
0010
0000
0100
0000
0010
1000
0100
1000
0100
0000
0000
0000
0000
0000
0110
0000
,
0110
0000
0000
0100
1000
0000
0010
0000
1000
0000
0000
0100
0010
0000
0001
0000
,
0010
0000
0100
0010
0100
1000
0001
0000
0100
0000
0010
0000
1000
0000
0001
0000
,
0100
0000
0001
1000
0001
0000
1000
0000
0010
0000
0000
1000
0001
0000
0100
0000
,
0010
0000
1000
0100
0010
0000
0100
0000
0010
0000
0000
0001
0100
0000
0010
0000
,
0100
0000
0000
0000
0010
0000
0100
0000
0010
0000
0000
1000
0010
0000
0100
0000
,
0001
0000
1000
0001
1000
0001
1000
0001
1000
0000
0100
0000
0010
0000
0100
0000
,
1000
0000
0001
0100
0001
0000
0010
0000
0001
0000
0000
1000
0100
0000
0010
0000
,
0001
0000
0010
0100
0010
0000
0001
0000
1000
0000
0000
0001
0010
0000
0100
0000
,
0010
0000
0000
0001
0010
0000
0001
0000
0100
0000
0010
0000
1000
0000
0100
0000
,
1000
M000
0001
0010
0100
1000
0010
0100
,
0010
0MM0
1000
0010
0100
0010
1000
0010
,
1000
0010
1000
0010
1000
0000
0000
0000
0001
0100
0001
0100
0001
0000
0000
0000
,
0100
0010
0100
0010
0100
0000
0001
0000
1000
0000
0010
0000
0100
0000
0001
0000
,
0010
0100
0010
0100
1000
0000
0001
0010
0001
0010
0001
0010
0001
0000
1001
0000
,
0001
1001
1001
0000
0101
0000
1010
1010
,
0110
0000
0000
0000
1000
0000
0001
0100
0001
0000
0100
0000
0010
1000
0010
1000
,
0010
0000
0100
0000
0001
1000
0001
1000
0001
0000
0100
0000
0010
1000
0010
1000
,
0010
1000
0010
1000
0010
0000
0100
0010
0100
0000
0010
0000
1000
0000
0010
0000
,
1000
0000
0000
0010
0000
0000
0100
0000
0000
0000
0000
0000
0010
0000
0110
0000
0000
0000
0010
0000
0000
1000
0000
0000
,
0001
0100
0020
0000
0000
0000
1030
0001
,
1000
0000
0010
1000
0010
0000
0100
0000
0001
0000
0010
0100
1000
0001
0100
0001
,
0100
0000
0000
0000
0001
0010
0100
0010
0100
0000
1000
0000
0010
0000
0100
0000
,
0010
0000
1000
0000
0001
1000
0001
1000
0MM2
0MM0
0MM0
0MM0
0MM3
0000
1010
0000
,
1010
0000
0000
0000
;

//---------------dance-single - ----------------
#NOTES:
     dance-single:
     :
     Medium:
     6:
     0.455,0.516,0.280,0.136,0.038,325.000,33.000,16.000,14.000,0.000:
0000
0000
0000
0000
,
0000
0000
1000
0000
0001
0000
0100
0010
,
0100
0000
0001
1000
0001
0000
0010
0001
,
0010
0100
0010
0000
0001
0000
1000
0010
,
0100
0000
0101
0000
0M0M
0000
1000
1000
,
1000
1000
0020
0000
0000
0000
0130
0010
,
1000
0000
0001
0010
0100
0000
0001
1000
,
0001
1000
1001
0000
M00M
0000
1000
0001
,
0100
0000
0010
0000
0204
0000
0003
0001
,
0301
0000
1001
0010
0100
0010
1000
0001
,
0100
0000
0010
0000
1000
0100
0010
0000
0100
0010
0001
0000
0100
0000
0000
0000
,
0110
0000
1000
0001
1000
0001
0100
0010
,
1000
0000
0001
0000
1010
0000
1100
0000
0100
0000
0010
0000
0100
1000
0001
0000
,
0100
0010
1000
0000
0010
0000
0001
0000
1000
0000
0000
0000
0100
0000
1000
0000
,
0100
1000
0010
0100
0001
0100
0101
0011
,
0001
0000
0100
0000
0010
0000
0100
0000
0010
1000
0010
1000
0010
0000
0000
0000
,
0110
0000
0101
0000
1000
0010
0100
0010
,
1100
0000
0100
0000
0010
0000
0001
0000
1010
0000
0100
0000
0010
0100
0001
0000
,
1000
0001
1000
0001
1000
0000
0100
0000
0010
0000
0001
0000
0010
0000
0010
0000
,
0001
0000
0100
0010
1000
0000
0001
0100
,
0010
0000
1010
0000
0010
0000
0100
0100
,
0100
0000
0002
0000
0010
0000
0103
1000
,
0100
0010
0001
0000
1000
0000
0010
0010
,
0010
0000
1000
0000
0010
0000
1000
0100
,
0010
0000
0001
0000
1000
0100
0000
0100
,
0010
0000
0001
0000
1010
0000
1000
0010
,
0100
0000
0100
0100
0010
0010
2000
0000
,
0002
3003
1001
1000
0010
0000
0100
0001
,
0010
0000
0001
0100
0010
0000
1000
0001
,
0100
0000
0020
0000
1000
0000
0130
0010
,
1000
0000
0010
1000
0100
0000
0010
0000
,
0011
0000
1001
0000
0100
0000
0010
1000
,
0010
0000
0100
0001
0100
0000
0010
0000
,
1010
0000
1010
0000
0100
0000
0010
1000
,
0100
0000
1000
0010
0200
0000
0000
0010
,
0310
0000
1000
0000
0001
0000
0100
0010
,
0100
0000
0001
0000
1000
0000
0001
0010
,
0001
0000
1000
0000
0010
0000
0100
0001
,
0100
0000
0000
0000
0010
0000
1000
0000
0010
0000
1000
0000
0020
0000
0200
0030
,
0020
0330
0110
0000
0000
M00M
0000
0000
,
0110
0110
0000
0000
0000
1001
0MM0
1001
,
0000
0000
0110
0000
0000
M00M
0000
0000
,
0110
0110
0000
0000
0000
1001
0MM0
1001
,
0000
0000
0110
1000
0010
1000
0010
0000
,
0100
0000
0001
1000
0001
1000
0001
0000
,
0100
0000
0010
1000
0010
1000
0010
0000
,
0100
0010
0100
0000
0001
1000
0001
0000
,
1000
0100
2000
0000
0001
0000
0010
0000
,
3001
0000
1000
0100
0010
0100
0020
0001
,
0031
0000
1002
0000
0010
0000
0103
0100
,
0010
0000
1000
0100
1000
0000
0010
0100
,
0010
0000
1000
0010
1000
0000
0001
0100
,
0001
0000
1000
0010
0100
0000
0001
1000
,
0010
0000
0110
0000
0MM0
0000
1000
0100
,
0010
0000
0200
0000
0000
0000
1300
0010
,
0100
0001
0010
0001
0020
0000
0031
1000
,
0001
0000
0010
0001
1000
0100
0010
0100
,
0010
0000
1001
0000
2004
0000
0003
0001
,
3001
0000
0000
0000
;

//---------------dance-single - ----------------
#NOTES:
     dance-single:
     :
     Easy:
     3:
     0.198,0.246,0.008,0.008,0.000,162.000,1.000,1.000,0.000,0.000:
0000
0000
0000
0000
,
0000
0100
0000
0001
,
1000
0001
0000
1000
,
0001
1000
0000
0001
,
0100
0001
0000
0110
,
0000
0100
0000
0010
,
1000
0010
0000
1000
,
0100
1000
0000
0001
,
0000
0100
0100
0000
,
0010
0010
1000
0010
,
0100
0000
0001
0000
1000
1000
1000
0000
,
0000
0001
0010
0100
,
1000
0001
0010
0100
,
1000
1000
1000
0000
0010
0000
1000
0000
,
0001
0100
0010
0100
,
0001
0000
1000
0000
0010
0010
0010
0000
,
0000
1000
0100
0010
,
0001
0010
0100
1000
,
0010
0010
0010
0000
0010
0000
0010
0000
,
0010
0100
0000
0001
,
0000
1000
0001
0100
,
0000
0010
0000
0100
,
0000
0010
0000
1000
,
0010
0100
0000
0001
,
0000
0100
0000
0001
,
0000
0100
0000
0010
,
0000
1000
0010
1000
,
0001
1000
0000
0010
,
0000
1000
0000
0001
,
1000
0100
0000
1000
,
0000
0001
0100
0001
,
1000
0100
0000
1000
,
0000
0010
0000
0100
,
0001
0100
0000
0010
,
0000
1000
0100
0010
,
0100
1000
0000
0001
,
0000
0100
0000
0010
,
0010
0100
0000
0001
,
0000
1000
0000
0010
,
0100
0010
0000
0000
,
1000
0000
0000
0001
,
0001
0100
0000
0010
,
0100
0000
0000
0100
,
0010
1000
0000
0010
,
0000
1000
0000
0001
,
0000
0100
0000
0010
,
1000
0010
0100
0001
,
1000
0010
0000
0100
,
0000
0010
0000
1000
,
1000
2000
0000
3001
,
0001
0100
0000
0010
,
0000
1000
0000
0010
,
0000
0100
0000
0001
,
0000
1000
0000
0010
,
0000
0100
0000
0010
,
0000
1000
0000
0010
,
0100
0001
0000
1000
,
0000
0010
0100
0000
,
0010
0000
0000
0000
;

//---------------dance-single - Blank----------------
#NOTES:
     dance-single:
     Blank:
     Beginner:
     1:
     0.097,0.123,0.008,0.000,0.000,79.000,1.000,0.000,0.000,0.000:
0000
0000
0000
0000
,
0000
0000
0000
0000
,
0000
0000
0000
0000
,
0000
0000
0000
0000
,
0000
1000
0000
0001
,
0000
1000
0000
0000
,
0000
0010
0000
0000
,
0000
1000
0000
0000
,
0000
0010
0000
0000
,
0000
0100
0000
0010
,
0000
1000
0000
0010
,
0000
0100
0000
0001
,
0000
1000
0000
0010
,
0000
0100
0000
0010
,
0000
1000
0000
0010
,
0000
0100
0000
0001
,
0000
1000
0000
0001
,
0000
0100
0000
0001
,
0000
0100
0000
0010
,
0000
1000
0000
0000
,
0000
0010
0000
0010
,
0000
0010
0000
0000
,
0000
0100
0000
0100
,
0000
0100
0000
0000
,
0000
0001
0000
0000
,
0000
0001
0000
1000
,
0000
0001
0000
0100
,
0000
0001
0000
0000
,
0000
0100
0000
0000
,
0000
0010
0000
0000
,
0000
1000
0000
0010
,
0000
0100
0000
0000
,
0000
0001
0000
0000
,
0000
1000
0000
0000
,
0000
0001
0000
0000
,
0000
0100
0000
0000
,
0000
0010
0000
0000
,
0000
1000
0000
0000
,
0000
0010
0000
0100
,
0000
0010
0000
0000
,
1000
0000
0000
0000
,
0001
0000
0000
0000
,
1000
0000
0000
0000
,
0001
0000
0000
0000
,
0000
1000
0000
0000
,
0000
0001
0000
0000
,
0000
0100
0000
0000
,
0000
0010
0000
0100
,
0000
0010
0000
0000
,
0000
0100
0100
0100
,
0100
0100
0000
0000
,
0000
0010
0000
0000
,
0000
1000
0000
0000
,
0000
0001
0000
0000
,
0000
0100
0000
0010
,
0000
0100
0000
0010
,
0000
1000
0000
0001
,
0000
0100
0000
0000
,
0110
0000
0000
0000
;
